#TITLE:Joyride;
#SUBTITLE:;
#ARTIST:Grand Theft Auto;
#TITLETRANSLIT:;
#SUBTITLETRANSLIT:;
#ARTISTTRANSLIT:;
#CREDIT:;
#BANNER:;
#BACKGROUND:Joyride-bg.png;
#LYRICSPATH:;
#CDTITLE:;
#MUSIC:Joyride [107.5].mp3;
#MUSICLENGTH:103.915;
#OFFSET:0.390;
#SAMPLESTART:58.228;
#SAMPLELENGTH:14.800;
#SELECTABLE:YES;
#BPMS:0.000=214.202,34.000=107.102;
#STOPS:;
#BGCHANGES:;
#FIRSTBEAT:34.000;

#LASTBEAT:197.500;

#SONGFILENAME:Songs/EXTRA/Joyride/Joyride.sm;

#HASMUSIC:1;

#HASBANNER:0;


//---------------dance-single - MANIAC----------------
#NOTES:
     dance-single:
     MANIAC:
     hard:
     10:
     0.613,0.641,0.462,0.250,0.592,372.000,48.000,26.000,0.000,0.000:


0000
0000
0000
0000
,
0000
0000
0000
0000
,
0000
0000
0000
0000
,
0000
0000
0000
0000
,
0000
0000
0000
0000
,
0000
0000
0000
0000
,
0000
0000
0000
0000
,
0000
0000
0000
0000
,
0000
0000
0000
0000
0000
0000
0000
0000
1001
0000
0001
0000
0001
0000
0010
0001
,
0000
1000
0000
0010
0100
0000
0001
0000
1000
0000
1000
0000
1000
0000
0100
1000
,
0000
0010
0000
1000
0001
0100
0010
1000
0010
0000
0010
0000
0010
0000
1000
0010
,
0000
0100
0000
1000
0001
0000
0010
0000
0100
0000
0100
0000
0100
0000
0001
0100
,
0000
0010
0000
0001
1000
0010
0100
0001
1000
0000
0010
0000
1000
0000
0010
1000
,
0000
0100
0000
0001
1000
0000
0100
0000
0100
0000
0001
0000
0100
0000
0001
0100
,
0000
0010
0000
1000
0001
0100
0010
1000
0010
0000
0001
0000
0010
0000
0100
1000
,
0000
0001
0000
0100
0010
0000
1000
0000
1000
0000
0100
0000
1000
0000
0100
1000
,
0000
0001
0000
0010
2002
0000
3003
0000
0010
0000
0100
0000
1000
0000
0001
0000
,
0100
0010
1000
0001
0200
0000
0300
0000
0001
0000
1000
0000
0010
0000
0100
0000
,
1000
0001
0010
0100
2000
0000
3000
0000
0100
0000
0010
0000
0001
0000
1000
0000
,
0010
0100
0001
1000
0020
0000
0030
0000
1000
0000
0001
0000
0100
0000
0010
0000
,
0001
1000
0100
0010
0002
0000
0003
0000
0010
0001
1000
0100
0000
1000
0000
0010
,
0100
0000
0100
0000
1000
0000
0001
0000
1000
0010
0100
0001
0000
0001
0000
0010
,
0001
0000
0100
0000
0001
0000
1000
0000
1000
0100
0010
0001
0000
0010
0000
1000
,
0010
0000
0001
0000
0010
0000
0100
0000
0100
0001
1000
0010
0100
0000
0001
0010
,
1000
0101
2200
3300
1000
0000
0011
1100
,
2002
0000
3003
0000
0202
0000
0303
0000
1000
0001
0010
0100
1000
0000
0001
0100
,
0000
0010
0000
0100
0001
0100
1000
0000
1000
0000
0000
0000
0202
0000
0303
0000
,
1000
0010
1000
0001
0100
0000
0001
0000
0001
1000
0010
0100
0001
0000
1000
0100
,
0000
0010
0000
0100
1000
0010
0001
0000
0001
0000
0000
0000
2200
0000
3300
0000
,
0001
0010
0001
1000
0010
0000
0100
0000
0001
0010
0100
1000
0001
0000
1000
0010
,
0000
0100
0000
0001
1000
0100
0010
0000
0001
0000
0000
0000
2020
0000
3030
0000
,
0100
0010
0100
0001
1000
0000
0010
0000
1000
0000
1000
0100
0001
0000
0001
0000
,
0010
0000
0001
0100
1000
0000
0101
0000
0001
0000
0010
0000
0100
0000
0100
0001
,
0000
1001
0000
0010
0001
0000
0110
0000
1000
0000
0100
0000
0010
0000
0010
1000
,
0000
0110
0000
0200
2000
0000
3300
0000
1010
0000
0011
0000
1010
0000
0001
0010
,
0000
1000
0000
0001
0100
0000
1000
0000
1100
0000
0101
0000
1100
0000
1000
0100
,
0000
0100
0000
1000
0010
0000
0001
0000
0100
0000
0001
0000
1000
0000
1000
0100
,
0000
0110
0000
0001
0100
0000
1001
0000
0010
0000
1000
0000
0001
0000
0001
0010
,
0000
1001
0000
2000
0020
0000
3030
0000
1100
0000
1010
0000
1100
0000
0010
1000
,
0000
0100
0000
0010
0001
0000
0100
0000
0101
0000
0011
0000
0101
0000
0100
0001
,
0000
0001
0000
0100
2000
0000
3000
0000
0010
0000
1100
0000
0001
0000
1100
0000
,
0010
0001
1000
0100
1000
0000
1100
0000
1000
0000
0101
0000
0010
0000
0101
0000
,
1000
0010
0100
0001
0100
0000
0101
0000
0001
0000
1010
0000
0100
0000
1010
0000
,
0001
0100
0010
1000
0010
0000
1010
0000
0100
0000
0011
0000
1000
0000
0011
0000
,
0100
1000
0001
0010
0001
0000
0011
0000
1100
0000
0000
0000
0022
0000
0033
0000
,
1000
0010
0000
0001
0010
0000
0000
0000
0100
0010
0000
0100
1000
0100
0000
0000
,
0010
0001
0000
0001
1000
0001
0000
0000
1000
0000
0100
0001
0000
0001
1000
0000
,
0001
0000
0100
0000
0001
0000
0001
0000
0001
0000
0010
0100
0000
0100
0001
0000
,
0000
1100
1010
0011
1001
0200
0000
0000
,
0000
0000
0000
0300
0000
0000
0000
0000;
